<?xml version="1.0" standalone="no"?>
<!DOCTYPE svg PUBLIC "-//W3C//DTD SVG 1.1//EN" "http://www.w3.org/Graphics/SVG/1.1/DTD/svg11.dtd">
<svg xmlns="http://www.w3.org/2000/svg">
<defs >
<font id="Lekton" horiz-adv-x="499" ><font-face
    font-family="Lekton"
    units-per-em="1000"
    panose-1="2 0 5 6 3 0 0 9 0 3"
    ascent="750"
    descent="-250"
    alphabetic="0" />
<glyph unicode=" " glyph-name="space" horiz-adv-x="500" />
<glyph unicode="!" glyph-name="exclam" horiz-adv-x="500" d="M322 688L229 188H183L258 688H322ZM143 -6L156 80H225L212 -6H143Z" />
<glyph unicode="&quot;" glyph-name="quotedbl" horiz-adv-x="500" d="M213 680L183 463H133L163 680H213ZM365 680L335 463H285L315 680H365Z" />
<glyph unicode="#" glyph-name="numbersign" horiz-adv-x="500" d="M298 236L350 438H206L154 236H298ZM479 192H338L287 0H234L286 192H142L90 0H38L90 192H-43L-36 236H102L154 438H16L23 481H165L211 655H263L217 481H362L407 655H459L414 481H546L539 438H402L350
236H486L479 192Z" />
<glyph unicode="$" glyph-name="dollar" horiz-adv-x="500" d="M348 332T382 293T407 175T346 49T219 -7L209 -92H161L172 -8Q109 -4 29 21L47 71Q136 42 196 42T300 77T350 174T332 260T223 307T107 367T83 478T140 593T254 641L265 725H313L303 642Q377 639
449 611L430 561Q351 592 283 592Q153 592 140 482Q134 428 159 401T266 353Z" />
<glyph unicode="%" glyph-name="percent" horiz-adv-x="500" d="M399 665H455L99 0H43L399 665ZM210 655T238 625T267 538T228 440T134 398T49 430T19 517T59 614T154 655ZM154 613Q117 613 94 585T71 520T87 462T138 441T195 468T217 538Q217 613 154 613ZM422
257T451 227T480 140T441 42T346 0T261 32T232 119T271 216T366 257ZM367 215Q329 215 306 187T283 122T299 64T350 43T407 70T429 140Q429 215 367 215Z" />
<glyph unicode="&amp;" glyph-name="ampersand" horiz-adv-x="500" d="M388 117L453 11L413 -21Q373 35 352 76Q271 -10 183 -10T50 44T14 197Q26 339 180 401Q141 482 148 535Q152 589 195 627T292 666T382 628T413 531T373 437T256 366L360 159Q404 236 443
365L488 357Q452 222 388 117ZM298 430T326 459T358 529T343 593T289 618T230 594T201 535T205 474T237 406Q298 430 326 459ZM328 115L199 362Q77 311 67 197Q59 123 90 81T186 38Q221 38 260 59T328 115Z" />
<glyph unicode="&apos;" glyph-name="quotesingle" horiz-adv-x="500" d="M287 680L257 463H207L237 680H287Z" />
<glyph unicode="(" glyph-name="parenleft" horiz-adv-x="500" d="M385 796L426 769Q351 671 304 567Q256 462 239 318T245 70T321 -132L273 -160Q216 -53 192 58Q166 168 184 318T253 579T385 796Z" />
<glyph unicode=")" glyph-name="parenright" horiz-adv-x="500" d="M114 -156L73 -128Q146 -33 193 72T259 322Q275 467 252 571T178 773L225 800Q281 696 305 584T312 322T244 61T114 -156Z" />
<glyph unicode="*" glyph-name="asterisk" horiz-adv-x="500" d="M76 505L81 550H221L195 690L239 705L265 563L388 650L409 614L285 526L389 441L358 402L255 490L195 350L155 366L215 505H76Z" />
<glyph unicode="+" glyph-name="plus" horiz-adv-x="500" d="M456 260H269L236 61H187L219 260H33L42 306H227L260 504H308L276 306H466L456 260Z" />
<glyph unicode="," glyph-name="comma" horiz-adv-x="500" d="M177 0L192 112H283L272 30Q261 -58 176 -143L153 -119Q205 -54 215 0H177Z" />
<glyph unicode="-" glyph-name="hyphen" horiz-adv-x="500" d="M104 265H390L381 213H95L104 265Z" />
<glyph unicode="." glyph-name="period" horiz-adv-x="500" d="M170 0L184 112H274L260 0H170Z" />
<glyph unicode="/" glyph-name="slash" horiz-adv-x="500" d="M508 688L26 -41L-14 -19L465 710L508 688Z" />
<glyph unicode="0" glyph-name="zero" horiz-adv-x="500" d="M90 501T145 573T302 646T437 569T442 312T357 61T199 -12T65 64T61 321ZM94 172T113 108T205 43T318 104T382 316Q408 460 389 525T295 591T182 528T119 319Z" />
<glyph unicode="1" glyph-name="one" horiz-adv-x="500" d="M400 0H49L57 50H218L304 576L133 500L122 548L320 635H370L274 50H408L400 0Z" />
<glyph unicode="2" glyph-name="two" horiz-adv-x="500" d="M254 201Q151 121 115 55H408L399 0H51V49Q76 100 118 147Q162 194 204 228L286 298Q380 380 395 459Q406 519 380 555T299 591T144 526L124 566Q232 643 307 643T422 595T448 460T374 310T254 201Z" />
<glyph unicode="3" glyph-name="three" horiz-adv-x="500" d="M145 294V340L219 351Q390 376 402 481Q408 538 375 565T285 593Q232 593 168 571L148 564L133 609Q332 682 418 606Q466 564 458 485Q451 427 423 395T337 340V338Q395 328 419 286T433 175Q403 -10
196 -10Q112 -10 12 30L35 77Q120 42 196 42T319 74T377 174T358 274T256 306L145 294Z" />
<glyph unicode="4" glyph-name="four" horiz-adv-x="500" d="M441 179L433 127H350L327 -10H275L297 127H48V174L277 634H331L107 179H306L340 389H393L359 179H441Z" />
<glyph unicode="5" glyph-name="five" horiz-adv-x="500" d="M354 405T394 353T421 204T348 49T194 -10Q121 -10 27 32L52 83Q136 42 202 42T312 87T365 205T347 315T256 353T120 295L84 306L138 634H458L448 581H180L145 362Q209 405 268 405Q354 405 394 353Z" />
<glyph unicode="6" glyph-name="six" horiz-adv-x="500" d="M136 347Q205 404 280 404Q378 404 422 353T447 205Q404 -10 203 -10Q115 -10 73 47T47 208Q76 382 159 481T419 651L428 601Q292 538 232 484T136 347ZM389 205Q413 352 272 352Q211 352 163 314T102
208Q72 42 221 42Q290 42 333 85T389 205Z" />
<glyph unicode="7" glyph-name="seven" horiz-adv-x="500" d="M443 543Q424 494 380 423L296 294Q256 236 221 156T176 0H117Q125 72 155 147Q184 222 222 283L297 398Q387 531 395 582H149L128 525L80 529L111 634H463Q460 593 443 543Z" />
<glyph unicode="8" glyph-name="eight" horiz-adv-x="500" d="M103 553T158 598T305 643T438 596T467 472Q448 365 348 326Q448 286 427 161Q413 80 354 35T197 -10T55 37T24 166Q45 284 157 324Q74 373 91 477Q103 553 158 598ZM180 299T137 264T83 169T103 75T205
42T318 75T372 168T352 264T250 299ZM231 591T192 559T144 473T161 384T257 349T363 382T411 472Q420 528 393 559T298 591Z" />
<glyph unicode="9" glyph-name="nine" horiz-adv-x="500" d="M154 239T111 290T83 435T160 586T314 643T447 588T475 439T421 265T330 125T192 -17L127 -6Q241 100 292 161T376 295Q343 267 315 253T247 239Q154 239 111 290ZM239 591T196 549T141 436T156 328T248
291T360 332T416 435Q440 591 304 591Q239 591 196 549Z" />
<glyph unicode=":" glyph-name="colon" horiz-adv-x="500" d="M200 303L213 405H300L287 303H200ZM160 0L173 102H260L247 0H160Z" />
<glyph unicode=";" glyph-name="semicolon" horiz-adv-x="500" d="M208 303L221 405H309L295 303H208ZM167 0L181 102H269L259 30Q246 -60 163 -143L140 -119Q191 -54 202 0H167Z" />
<glyph unicode="&lt;" glyph-name="less" horiz-adv-x="500" d="M464 502L107 292L405 72L375 31L48 276L52 308L443 543L464 502Z" />
<glyph unicode="=" glyph-name="equal" horiz-adv-x="500" d="M33 207H459L452 163H26L33 207ZM56 375H482L475 331H49L56 375Z" />
<glyph unicode="&gt;" glyph-name="greater" horiz-adv-x="500" d="M45 82L400 292L103 512L134 553L460 308L456 276L65 41L45 82Z" />
<glyph unicode="?" glyph-name="question" horiz-adv-x="500" d="M136 0L148 93H228L217 0H136ZM418 539Q412 481 390 446Q368 410 312 360T241 288T222 232T217 167L167 165Q164 187 167 238Q173 282 192 310Q212 337 268 387T341 465T364 538T344 610T274 637T196
619T110 562L86 603Q145 647 187 668T275 689Q344 689 385 650T418 539Z" />
<glyph unicode="@" glyph-name="at" horiz-adv-x="500" d="M360 87L415 453Q396 473 317 473T183 404T109 206T127 10T227 -57T374 -30L379 -81Q295 -109 219 -109Q123 -109 76 -29T52 207T146 443T326 525Q373 525 409 516T459 496L472 487L406 54Q346 27 267
27Q143 27 173 216Q206 389 323 389Q373 389 401 378L411 374L399 324Q376 338 317 338Q242 338 227 216Q213 158 224 118T282 78Q318 78 348 84L360 87Z" />
<glyph unicode="A" glyph-name="A" horiz-adv-x="500" d="M434 0H375L358 151H93L27 0H-30L263 655H359L434 0ZM115 201H352L309 608H295L115 201Z" />
<glyph unicode="B" glyph-name="B" horiz-adv-x="500" d="M32 0L139 655H270Q387 655 437 617T473 485Q464 426 435 390T348 336Q463 308 453 187Q444 82 378 41T190 0H32ZM267 605H183L142 359H256Q324 359 366 392Q410 424 420 488T391 578T267 605ZM135 310L92
50H199Q287 50 336 80T397 182T366 282T249 310H135Z" />
<glyph unicode="C" glyph-name="C" horiz-adv-x="500" d="M370 70L374 19Q290 -9 216 -9Q107 -9 66 71T52 334Q80 504 145 584T323 665Q398 665 469 640L447 508H395L409 597Q371 613 316 613Q234 613 185 545T110 334Q86 179 116 111T226 43Q283 43 370 70Z" />
<glyph unicode="D" glyph-name="D" horiz-adv-x="500" d="M16 0L124 655H255Q401 655 446 579T465 327Q437 133 359 64Q318 28 269 14T148 0H16ZM249 605H167L76 50H156Q232 50 278 72Q373 117 409 327Q433 485 398 545T249 605Z" />
<glyph unicode="E" glyph-name="E" horiz-adv-x="500" d="M378 0H51L159 655H481L473 605H203L162 357H408L400 307H154L112 50H386L378 0Z" />
<glyph unicode="F" glyph-name="F" horiz-adv-x="500" d="M95 0H43L150 655H473L465 605H194L147 319H379L371 269H139L95 0Z" />
<glyph unicode="G" glyph-name="G" horiz-adv-x="500" d="M282 266L291 316H455L408 27Q302 -9 224 -9Q108 -9 66 70T51 328T147 585T339 665Q420 665 504 633L482 582Q396 613 331 613Q237 613 187 547T110 328T114 109T236 43Q295 44 363 66L396 266H282Z" />
<glyph unicode="H" glyph-name="H" horiz-adv-x="500" d="M330 0L379 300H114L65 0H13L120 655H172L122 350H387L437 655H489L382 0H330Z" />
<glyph unicode="I" glyph-name="I" horiz-adv-x="500" d="M305 605L214 50H321L313 0H48L56 50H162L253 605H144L152 655H416L408 605H305Z" />
<glyph unicode="J" glyph-name="J" horiz-adv-x="500" d="M359 605L296 215Q274 77 246 34T137 -11Q120 -11 81 -5T25 6L41 58Q102 41 146 41T207 71T244 218L307 605H152L160 655H413L405 605H359Z" />
<glyph unicode="K" glyph-name="K" horiz-adv-x="500" d="M412 655H472Q352 455 264 337Q286 292 320 208L401 0H338Q257 221 216 307L129 297L81 0H28L135 655H188L137 346L218 356Q295 458 382 604L412 655Z" />
<glyph unicode="L" glyph-name="L" horiz-adv-x="500" d="M377 50L370 0H57L163 655H216L117 50H377Z" />
<glyph unicode="M" glyph-name="M" horiz-adv-x="500" d="M389 0H337L424 533L276 239H209L144 533L56 0H3L112 655H167L246 289H252L430 655H497L389 0Z" />
<glyph unicode="N" glyph-name="N" horiz-adv-x="500" d="M340 0L356 103L144 558L53 0H0L108 655H159L370 195L446 655H498L391 0H340Z" />
<glyph unicode="O" glyph-name="O" horiz-adv-x="500" d="M309 665Q386 665 424 622T465 505T453 344T420 197Q402 139 372 90Q312 -10 193 -10Q118 -10 80 35T40 156T54 336Q80 495 138 580T309 665ZM133 447T125 414T109 333T97 248T94 169T106 102T140 58T204
41T280 65Q314 88 336 134Q375 214 396 336Q423 482 397 552Q387 578 363 596T300 614T232 596T183 553T148 487Z" />
<glyph unicode="P" glyph-name="P" horiz-adv-x="500" d="M198 242H111L70 0H19L126 655H265Q379 655 426 610T455 452T374 291T198 242ZM257 605H170L119 292H206Q294 292 340 328Q386 365 400 452T380 572T257 605Z" />
<glyph unicode="Q" glyph-name="Q" horiz-adv-x="500" d="M347 -73L302 21Q254 -10 186 -10T80 35T40 156T54 336Q81 495 138 580T309 665Q386 665 424 623T465 507T452 336Q419 140 345 58L385 -30L347 -73ZM133 447T125 414T108 327T96 227T98 134Q111 41 201
41Q242 41 275 63L231 118L264 170L316 103Q366 169 396 336Q423 482 397 552Q387 578 363 596T300 614T232 596T183 553T148 487Z" />
<glyph unicode="R" glyph-name="R" horiz-adv-x="500" d="M265 271Q211 268 198 268H120L75 0H24L130 655H270Q386 655 434 614T465 466Q452 395 418 353T320 283Q364 147 392 0H335Q306 143 265 271ZM261 605H175L128 318H203Q291 318 343 351T409 466T387 576T261 605Z" />
<glyph unicode="S" glyph-name="S" horiz-adv-x="500" d="M358 337T391 299T415 175T345 40T198 -9Q133 -9 38 20L56 70Q148 42 207 42T309 76T359 173T342 264T235 314T118 377T92 498T159 621T297 665T460 634L441 584Q367 614 301 614T195 584T150 499T168
414T276 361Z" />
<glyph unicode="T" glyph-name="T" horiz-adv-x="500" d="M307 605L208 0H156L255 605H92L100 655H480L473 605H307Z" />
<glyph unicode="U" glyph-name="U" horiz-adv-x="500" d="M491 655L415 190Q398 93 342 42Q286 -9 194 -9T65 44T42 190L118 655H170L95 193Q68 39 203 39Q270 39 310 81T363 193L439 655H491Z" />
<glyph unicode="V" glyph-name="V" horiz-adv-x="500" d="M79 655H133L202 49H210L475 655H533L244 0H149L79 655Z" />
<glyph unicode="W" glyph-name="W" horiz-adv-x="500" d="M490 655H548L374 0H278L248 316L119 0H28L56 655H110L83 50H89L220 370H291L324 50H330L490 655Z" />
<glyph unicode="X" glyph-name="X" horiz-adv-x="500" d="M244 288L72 0H5L220 341L120 655H185L265 380H270L423 655H490L295 328L409 0H342L249 288H244Z" />
<glyph unicode="Y" glyph-name="Y" horiz-adv-x="500" d="M222 283L177 0H122L167 283L34 655H95L201 340H206L411 655H474L222 283Z" />
<glyph unicode="Z" glyph-name="Z" horiz-adv-x="500" d="M466 655V615L97 47H399L393 0H33V40L400 607H116L123 655H466Z" />
<glyph unicode="[" glyph-name="bracketleft" horiz-adv-x="500" d="M271 743L132 -106H278L266 -156H72L227 793H420L412 743H271Z" />
<glyph unicode="\" glyph-name="backslash" horiz-adv-x="500" d="M362 -41L70 688L120 710L411 -19L362 -41Z" />
<glyph unicode="]" glyph-name="bracketright" horiz-adv-x="500" d="M221 -106L360 743H213L224 793H420L265 -156H70L78 -106H221Z" />
<glyph unicode="_" glyph-name="underscore" horiz-adv-x="500" d="M11 -128L17 -85H489L483 -128H11Z" />
<glyph unicode="`" glyph-name="grave" horiz-adv-x="500" d="M175 717L337 619L312 576L148 668L175 717Z" />
<glyph unicode="a" glyph-name="a" horiz-adv-x="500" d="M205 44Q231 44 281 96T348 180L385 400Q331 428 291 428Q204 428 156 352T108 180Q108 121 131 83T205 44ZM206 -9Q129 -9 91 39T52 173Q52 282 108 376Q136 422 183 451T290 481Q309 481 340 472T390
452L396 472H449L389 110L391 -2L341 -8L333 93Q311 55 275 23T206 -9Z" />
<glyph unicode="b" glyph-name="b" horiz-adv-x="500" d="M24 0L133 665H185L146 429Q223 481 278 481Q364 481 403 420T429 244T356 61T205 -9Q179 -9 141 0T83 20L77 0H24ZM385 331T358 380T270 429T137 372L88 72Q106 63 146 53T209 43Q276 43 320 98T374 242Z" />
<glyph unicode="c" glyph-name="c" horiz-adv-x="500" d="M358 320L375 419Q329 430 302 430Q175 430 144 237Q130 149 159 96T257 42Q298 42 379 71L387 21Q308 -9 251 -9Q158 -9 117 56T93 237Q129 481 309 481Q374 481 433 460L410 320H358Z" />
<glyph unicode="d" glyph-name="d" horiz-adv-x="500" d="M472 665L377 83L375 -4L325 -10L323 43Q244 -9 193 -9Q108 -9 69 57T43 236T116 415T266 481Q292 481 328 473T385 454L420 665H472ZM87 150T114 97T198 43T327 100L376 400Q360 409 322 419T262 429Q195
429 152 378T98 238Z" />
<glyph unicode="e" glyph-name="e" horiz-adv-x="500" d="M186 454Q229 481 289 481T386 449T423 360T380 260T257 206L130 189Q132 114 156 79T240 43T380 72L389 22Q308 -9 234 -9T118 41T76 182Q76 294 120 382Q143 428 186 454ZM133 236L250 253Q310 262 340
291T371 359Q371 433 282 433Q213 433 177 377T133 236Z" />
<glyph unicode="f" glyph-name="f" horiz-adv-x="500" d="M164 425H74L82 475H171Q193 673 334 673Q380 673 433 656L415 605Q363 621 330 621Q241 621 224 475H392L384 425H218Q191 188 165 34T126 -156L113 -192H60Q65 -182 74 -153T110 33T164 425Z" />
<glyph unicode="g" glyph-name="g" horiz-adv-x="500" d="M329 -24L339 39Q273 1 222 1Q137 1 98 62Q58 124 72 238T144 416T295 481Q347 481 406 446L411 475H463L382 -23Q372 -112 315 -156T182 -200T15 -160L38 -110Q126 -148 182 -148T279 -118T329 -24ZM348
97L397 390Q342 429 291 429Q224 429 180 378Q136 326 126 238T143 102T227 53T348 97Z" />
<glyph unicode="h" glyph-name="h" horiz-adv-x="500" d="M161 388L97 0H45L154 665H206L169 439Q263 481 326 481T417 438T437 317L382 0H332L387 317Q393 368 376 398T306 429T161 388Z" />
<glyph unicode="i" glyph-name="i" horiz-adv-x="500" d="M231 616Q235 658 280 658Q297 658 308 648T317 616Q311 571 269 571Q253 571 241 582T231 616ZM365 2L359 52Q317 42 293 42Q242 42 236 67T243 162L293 475H121L113 425H233L189 160Q182 103 181 65T204
9T287 -10L365 2Z" />
<glyph unicode="j" glyph-name="j" horiz-adv-x="500" d="M371 475L293 -10Q280 -88 245 -128Q216 -161 143 -176Q114 -182 67 -188V-141Q156 -129 192 -102T239 -9L311 425H182L190 475H371ZM306 616Q310 658 355 658Q372 658 383 648T392 616Q386 571 344 571Q328
571 316 582T306 616Z" />
<glyph unicode="k" glyph-name="k" horiz-adv-x="500" d="M374 475H431Q349 357 255 253Q326 122 385 0H325Q257 142 213 221L144 212L109 0H57L166 665H218L152 260L214 270Q292 363 374 475Z" />
<glyph unicode="l" glyph-name="l" horiz-adv-x="500" d="M193 160L267 615H138L145 665H327L245 162Q232 92 238 67T290 42T391 61L397 11Q338 -10 284 -10T206 8T183 65T193 160Z" />
<glyph unicode="m" glyph-name="m" horiz-adv-x="500" d="M119 475V445Q171 481 204 481Q259 481 278 438Q336 481 376 481Q441 481 458 442T465 318L414 0H361L414 318Q424 366 415 398T367 431Q341 431 289 398Q291 360 285 318L258 152H205L232 318Q255 429
188 429Q153 429 109 397L43 0H-9L69 475H119Z" />
<glyph unicode="n" glyph-name="n" horiz-adv-x="500" d="M175 475L173 435Q271 481 332 481T422 437T442 317L392 0H339L392 317Q398 366 380 398Q362 429 314 429T165 385L101 0H49L127 475H175Z" />
<glyph unicode="o" glyph-name="o" horiz-adv-x="500" d="M227 -10Q41 -12 67 234Q102 481 277 481Q368 482 409 421T437 237Q402 -10 227 -10ZM399 328T371 379T276 430T173 381T121 237T134 92T230 42Q352 42 384 236Q399 328 371 379Z" />
<glyph unicode="p" glyph-name="p" horiz-adv-x="500" d="M2 -192L97 389L99 476L150 482L152 428Q227 481 287 481Q373 481 411 417T436 239T356 58T194 -9Q144 -9 88 18L54 -192H2ZM392 325T367 377T282 429T146 371L97 72Q114 62 145 54T198 45Q267 45 319
97T381 237Z" />
<glyph unicode="q" glyph-name="q" horiz-adv-x="500" d="M462 447L358 -192H306L344 42Q269 -9 217 -9Q142 -9 101 43T60 186Q60 313 120 397T284 481T462 447ZM114 125T143 84T224 43T354 104L404 410Q385 418 349 425T287 433Q209 433 162 363T114 195Q114
125 143 84Z" />
<glyph unicode="r" glyph-name="r" horiz-adv-x="500" d="M258 367L198 0H146L215 425H122L130 475H276L266 417Q299 438 355 457T453 481L446 422Q407 419 348 402T258 367Z" />
<glyph unicode="s" glyph-name="s" horiz-adv-x="500" d="M86 21L100 75Q190 42 243 42T328 68T360 143Q360 172 339 189T256 222T161 266T128 338Q128 407 174 445T294 483T438 455L424 404Q350 430 298 430T214 407T181 352T204 302Q228 286 292 268T384 223T413
138T367 36T245 -9T86 21Z" />
<glyph unicode="t" glyph-name="t" horiz-adv-x="500" d="M147 160L190 418H98L106 468H198L217 583L271 593L250 468H410L402 418H242L201 162Q200 150 197 131T194 104T192 84T193 67L198 56Q205 42 248 42T346 61L352 11Q294 -10 240 -10T161 8T137 65T147 160Z" />
<glyph unicode="u" glyph-name="u" horiz-adv-x="500" d="M341 0L343 41Q248 -9 186 -9T93 35T70 155L122 475H174L122 155Q116 106 135 75T201 43T349 93L412 475H464L386 0H341Z" />
<glyph unicode="v" glyph-name="v" horiz-adv-x="500" d="M94 475H151L213 48H230L412 475H469L263 0H168L94 475Z" />
<glyph unicode="w" glyph-name="w" horiz-adv-x="500" d="M438 475H487L367 0H266L242 207H235L161 0H61L65 475H114L113 48H130L222 289H276L311 48H328L438 475Z" />
<glyph unicode="x" glyph-name="x" horiz-adv-x="500" d="M97 475H162L255 279L391 475H455L285 241L407 0H343L245 203L101 0H36L217 241L97 475Z" />
<glyph unicode="y" glyph-name="y" horiz-adv-x="455" d="M94 475H151L210 71H215L394 475H450L197 -81Q162 -157 125 -180T1 -206L7 -155Q63 -153 92 -137T141 -76L169 -7L94 475Z" />
<glyph unicode="z" glyph-name="z" horiz-adv-x="500" d="M118 425L126 475H432V434L133 50H400L392 0H66L63 41L361 425H118Z" />
<glyph unicode="{" glyph-name="braceleft" horiz-adv-x="500" d="M178 323L257 285Q246 209 225 98T197 -51Q189 -106 232 -106H330L323 -156H221Q127 -156 142 -57Q148 -20 167 78T198 253L122 303L127 348L221 398Q234 484 243 576T256 694Q271 793 365 793H467L460
743H362Q317 743 309 688Q305 659 294 555T270 366L179 328L178 323Z" />
<glyph unicode="|" glyph-name="bar" horiz-adv-x="500" d="M358 743L208 -244H157L307 743H358Z" />
<glyph unicode="}" glyph-name="braceright" horiz-adv-x="500" d="M308 398L386 348L381 303L286 253Q275 181 266 83T249 -57Q234 -156 141 -156H39L45 -106H143Q188 -106 196 -51Q203 -5 215 105T237 285L328 323L329 328L250 366Q262 447 282 549T308 688Q316
743 273 743H175L183 793H285Q378 793 363 694Q358 659 340 569T308 398Z" />
<glyph unicode="~" glyph-name="asciitilde" horiz-adv-x="500" d="M444 316L469 286Q423 245 394 227T338 209Q296 209 244 247T168 286Q132 286 61 224L35 255Q83 296 114 314Q144 332 178 332T262 294T343 255T444 316Z" />
<glyph unicode="&#xa1;" glyph-name="exclamdown" horiz-adv-x="500" d="M158 -193L251 307H297L222 -193H158ZM337 501L324 415H255L268 501H337Z" />
<glyph unicode="&#xa3;" glyph-name="sterling" horiz-adv-x="500" d="M154 51H447L439 0H32L40 51Q98 52 113 89T163 318H82L90 368H162Q163 437 168 502T206 609T288 664Q385 692 494 658L476 605Q402 632 324 616Q286 608 258 580T224 505Q220 483 218 368H406L398
318H221Q198 188 192 153Q177 78 154 51Z" />
<glyph unicode="&#xa5;" glyph-name="yen" horiz-adv-x="500" d="M248 323L197 0H142L193 323L52 655H111L224 374H226L427 655H492L248 323ZM19 218H388L380 168H11L19 218ZM41 361H410L402 311H33L41 361Z" />
<glyph unicode="&#xa8;" glyph-name="dieresis" horiz-adv-x="500" d="M162 610Q131 610 131 644Q131 660 143 672T171 684T196 675T204 651T192 623T162 610ZM341 610T333 619T324 643T336 671T365 684T389 675T398 651T386 623T357 610Z" />
<glyph unicode="&#xab;" glyph-name="guillemotleft" horiz-adv-x="500" d="M278 25L112 196L118 245L339 416L328 346L162 217L288 89L278 25ZM432 47L265 208L271 253L490 414L479 344L315 227L443 111L432 47Z" />
<glyph unicode="&#xb0;" glyph-name="degree" horiz-adv-x="500" d="M321 693T354 660T388 571T340 471T234 426T142 459T108 548T156 648T263 693ZM338 596T318 622T261 649T196 625T163 562T178 498T236 471T300 494T333 557Z" />
<glyph unicode="&#xb1;" glyph-name="plusminus" horiz-adv-x="500" d="M500 300H290L266 148H216L240 300H30L37 343H247L272 504H322L297 343H507L500 300ZM461 54H-9L-2 96H468L461 54Z" />
<glyph unicode="&#xb4;" glyph-name="acute" horiz-adv-x="500" d="M152 622L316 720L334 666L169 574L152 622Z" />
<glyph unicode="&#xb5;" glyph-name="mu" horiz-adv-x="500" d="M57 -49L138 475H193L142 154Q134 100 150 70T231 39T375 105L435 475H488L413 0H362L367 46Q336 20 295 5T216 -10Q142 -10 119 33L108 -52Q94 -138 53 -192L14 -173Q37 -132 44 -106T57 -49Z" />
<glyph unicode="&#xb6;" glyph-name="paragraph" horiz-adv-x="500" d="M345 0H310L445 700H480L345 0ZM185 0H150L201 264Q105 271 61 306T16 421Q16 567 78 633T296 700H320L185 0ZM207 296L279 668Q148 666 100 614T51 427Q51 360 88 331T207 296Z" />
<glyph unicode="&#xb8;" glyph-name="cedilla" horiz-adv-x="500" d="M253 -57Q333 -57 333 -139Q333 -183 302 -212T224 -242Q199 -242 162 -235L174 -192Q192 -197 220 -197Q282 -197 282 -138Q282 -101 235 -101Q218 -101 191 -106L192 -65Q224 -57 253 -57Z" />
<glyph unicode="&#xbb;" glyph-name="guillemotright" horiz-adv-x="500" d="M296 434L461 263L454 211L234 40L245 112L410 239L285 369L296 434ZM140 412L307 251L300 203L81 42L93 114L256 229L129 347L140 412Z" />
<glyph unicode="&#xbf;" glyph-name="questiondown" horiz-adv-x="500" d="M370 490L358 397H278L289 490H370ZM88 -49Q94 9 116 44Q138 80 194 130T265 202T284 258T289 323L339 325Q342 303 339 252Q333 208 314 180Q294 153 238 103T165 25T142 -48T162 -120T232
-147T310 -129T396 -72L420 -113Q361 -157 319 -178T231 -199Q162 -199 121 -160T88 -49Z" />
<glyph unicode="&#xc0;" glyph-name="Agrave" horiz-adv-x="500" d="M434 0H375L358 151H93L27 0H-30L263 655H359L434 0ZM115 201H352L309 608H295L115 201ZM257 942L419 844L394 801L230 893L257 942Z" />
<glyph unicode="&#xc1;" glyph-name="Aacute" horiz-adv-x="500" d="M434 0H375L358 151H93L27 0H-30L263 655H359L434 0ZM115 201H352L309 608H295L115 201ZM218 847L382 945L400 891L235 799L218 847Z" />
<glyph unicode="&#xc2;" glyph-name="Acircumflex" horiz-adv-x="500" d="M434 0H375L358 151H93L27 0H-30L263 655H359L434 0ZM115 201H352L309 608H295L115 201ZM165 812L318 974H363L465 812H407L333 934L222 812H165Z" />
<glyph unicode="&#xc3;" glyph-name="Atilde" horiz-adv-x="500" d="M434 0H375L358 151H93L27 0H-30L263 655H359L434 0ZM115 201H352L309 608H295L115 201ZM451 919L471 886Q410 831 377 831T311 858T256 885T183 844L160 878Q226 932 262 932T332 906T384 879T451
919Z" />
<glyph unicode="&#xc4;" glyph-name="Adieresis" horiz-adv-x="500" d="M434 0H375L358 151H93L27 0H-30L263 655H359L434 0ZM115 201H352L309 608H295L115 201ZM228 835Q197 834 197 868Q197 884 209 896T237 909T262 900T270 876T258 848T228 835ZM407 835T399
844T390 868T402 896T431 909T455 900T464 876T452 848T423 835Z" />
<glyph unicode="&#xc5;" glyph-name="Aring" horiz-adv-x="500" d="M434 0H375L358 151H93L27 0H-30L263 655H359L434 0ZM115 201H352L309 608H295L115 201ZM387 954T411 933T436 867T402 793T321 763T249 784T224 849T257 923T339 954ZM266 848Q266 801 320 801Q353
801 372 819T392 868Q392 915 338 915Q305 915 286 897T266 848Z" />
<glyph unicode="&#xc6;" glyph-name="AE" horiz-adv-x="500" d="M451 0H214L241 151H93L24 0H-34L261 655H563L555 607H381L337 357H484L475 309H328L283 48H460L451 0ZM116 201H250L326 608H295L116 201Z" />
<glyph unicode="&#xc7;" glyph-name="Ccedilla" horiz-adv-x="500" d="M370 70L374 19Q290 -9 216 -9Q107 -9 66 71T52 334Q80 504 145 584T323 665Q398 665 469 640L447 508H395L409 597Q371 613 316 613Q234 613 185 545T110 334Q86 179 116 111T226 43Q283
43 370 70ZM195 -57Q275 -57 275 -139Q275 -183 244 -212T166 -242Q141 -242 104 -235L116 -192Q134 -197 162 -197Q224 -197 224 -138Q224 -101 177 -101Q160 -101 133 -106L134 -65Q166 -57 195 -57Z" />
<glyph unicode="&#xc8;" glyph-name="Egrave" horiz-adv-x="500" d="M378 0H51L159 655H481L473 605H203L162 357H408L400 307H154L112 50H386L378 0ZM262 942L424 844L399 801L235 893L262 942Z" />
<glyph unicode="&#xc9;" glyph-name="Eacute" horiz-adv-x="500" d="M378 0H51L159 655H481L473 605H203L162 357H408L400 307H154L112 50H386L378 0ZM228 847L392 945L410 891L245 799L228 847Z" />
<glyph unicode="&#xca;" glyph-name="Ecircumflex" horiz-adv-x="500" d="M378 0H51L159 655H481L473 605H203L162 357H408L400 307H154L112 50H386L378 0ZM175 812L328 974H373L475 812H417L343 934L232 812H175Z" />
<glyph unicode="&#xcb;" glyph-name="Edieresis" horiz-adv-x="500" d="M378 0H51L159 655H481L473 605H203L162 357H408L400 307H154L112 50H386L378 0ZM228 835Q197 834 197 868Q197 884 209 896T237 909T262 900T270 876T258 848T228 835ZM407 835T399 844T390
868T402 896T431 909T455 900T464 876T452 848T423 835Z" />
<glyph unicode="&#xcc;" glyph-name="Igrave" horiz-adv-x="500" d="M305 605L214 50H321L313 0H48L56 50H162L253 605H144L152 655H416L408 605H305ZM232 942L394 844L369 801L205 893L232 942Z" />
<glyph unicode="&#xcd;" glyph-name="Iacute" horiz-adv-x="500" d="M305 605L214 50H321L313 0H48L56 50H162L253 605H144L152 655H416L408 605H305ZM208 847L372 945L390 891L225 799L208 847Z" />
<glyph unicode="&#xce;" glyph-name="Icircumflex" horiz-adv-x="500" d="M305 605L214 50H321L313 0H48L56 50H162L253 605H144L152 655H416L408 605H305ZM155 812L308 974H353L455 812H397L323 934L212 812H155Z" />
<glyph unicode="&#xcf;" glyph-name="Idieresis" horiz-adv-x="500" d="M305 605L214 50H321L313 0H48L56 50H162L253 605H144L152 655H416L408 605H305ZM208 835Q177 834 177 868Q177 884 189 896T217 909T242 900T250 876T238 848T208 835ZM387 835T379 844T370
868T382 896T411 909T435 900T444 876T432 848T403 835Z" />
<glyph unicode="&#xd1;" glyph-name="Ntilde" horiz-adv-x="500" d="M340 0L356 103L144 558L53 0H0L108 655H159L370 195L446 655H498L391 0H340ZM446 919L466 886Q405 831 372 831T306 858T251 885T178 844L155 878Q220 932 256 932T326 906T378 879T446 919Z" />
<glyph unicode="&#xd2;" glyph-name="Ograve" horiz-adv-x="500" d="M309 665Q386 665 424 622T465 505T453 344T420 197Q402 139 372 90Q312 -10 193 -10Q118 -10 80 35T40 156T54 336Q80 495 138 580T309 665ZM133 447T125 414T109 333T97 248T94 169T106 102T140
58T204 41T280 65Q314 88 336 134Q375 214 396 336Q423 482 397 552Q387 578 363 596T300 614T232 596T183 553T148 487ZM262 942L424 844L399 801L235 893L262 942Z" />
<glyph unicode="&#xd3;" glyph-name="Oacute" horiz-adv-x="500" d="M309 665Q386 665 424 622T465 505T453 344T420 197Q402 139 372 90Q312 -10 193 -10Q118 -10 80 35T40 156T54 336Q80 495 138 580T309 665ZM133 447T125 414T109 333T97 248T94 169T106 102T140
58T204 41T280 65Q314 88 336 134Q375 214 396 336Q423 482 397 552Q387 578 363 596T300 614T232 596T183 553T148 487ZM238 847L402 945L420 891L255 799L238 847Z" />
<glyph unicode="&#xd4;" glyph-name="Ocircumflex" horiz-adv-x="500" d="M309 665Q386 665 424 622T465 505T453 344T420 197Q402 139 372 90Q312 -10 193 -10Q118 -10 80 35T40 156T54 336Q80 495 138 580T309 665ZM133 447T125 414T109 333T97 248T94 169T106
102T140 58T204 41T280 65Q314 88 336 134Q375 214 396 336Q423 482 397 552Q387 578 363 596T300 614T232 596T183 553T148 487ZM180 812L333 974H378L480 812H422L348 934L237 812H180Z" />
<glyph unicode="&#xd5;" glyph-name="Otilde" horiz-adv-x="500" d="M309 665Q386 665 424 622T465 505T453 344T420 197Q402 139 372 90Q312 -10 193 -10Q118 -10 80 35T40 156T54 336Q80 495 138 580T309 665ZM133 447T125 414T109 333T97 248T94 169T106 102T140
58T204 41T280 65Q314 88 336 134Q375 214 396 336Q423 482 397 552Q387 578 363 596T300 614T232 596T183 553T148 487ZM461 919L481 886Q420 831 387 831T321 858T266 885T193 844L170 878Q235 932 271 932T342 906T393 879T461 919Z" />
<glyph unicode="&#xd6;" glyph-name="Odieresis" horiz-adv-x="500" d="M309 665Q386 665 424 622T465 505T453 344T420 197Q402 139 372 90Q312 -10 193 -10Q118 -10 80 35T40 156T54 336Q80 495 138 580T309 665ZM133 447T125 414T109 333T97 248T94 169T106
102T140 58T204 41T280 65Q314 88 336 134Q375 214 396 336Q423 482 397 552Q387 578 363 596T300 614T232 596T183 553T148 487ZM232 835Q201 834 201 868Q201 884 213 896T241 909T266 900T274 876T262 848T232 835ZM411 835T403 844T394 868T406 896T435 909T459
900T468 876T456 848T427 835Z" />
<glyph unicode="&#xd9;" glyph-name="Ugrave" horiz-adv-x="500" d="M491 655L415 190Q398 93 342 42Q286 -9 194 -9T65 44T42 190L118 655H170L95 193Q68 39 203 39Q270 39 310 81T363 193L439 655H491ZM252 942L414 844L389 801L225 893L252 942Z" />
<glyph unicode="&#xda;" glyph-name="Uacute" horiz-adv-x="500" d="M491 655L415 190Q398 93 342 42Q286 -9 194 -9T65 44T42 190L118 655H170L95 193Q68 39 203 39Q270 39 310 81T363 193L439 655H491ZM238 847L402 945L420 891L255 799L238 847Z" />
<glyph unicode="&#xdb;" glyph-name="Ucircumflex" horiz-adv-x="500" d="M491 655L415 190Q398 93 342 42Q286 -9 194 -9T65 44T42 190L118 655H170L95 193Q68 39 203 39Q270 39 310 81T363 193L439 655H491ZM167 812L320 974H365L467 812H409L335 934L224 812H167Z" />
<glyph unicode="&#xdc;" glyph-name="Udieresis" horiz-adv-x="500" d="M491 655L415 190Q398 93 342 42T194 -9T65 44T42 190L118 655H170L95 193Q68 39 203 39Q270 39 310 81T363 193L439 655H491ZM218 835Q187 834 187 868Q187 884 199 896T227 909T252 900T260
876T248 848T218 835ZM397 835T389 844T380 868T392 896T421 909T445 900T454 876T442 848T413 835Z" />
<glyph unicode="&#xe0;" glyph-name="agrave" horiz-adv-x="500" d="M205 44Q231 44 281 96T348 180L385 400Q331 428 291 428Q204 428 156 352T108 180Q108 121 131 83T205 44ZM206 -9Q129 -9 91 39T52 173Q52 282 108 376Q136 422 183 451T290 481Q309 481 340
472T390 452L396 472H449L389 110L391 -2L341 -8L333 93Q311 55 275 23T206 -9ZM242 717L404 619L379 576L215 668L242 717Z" />
<glyph unicode="&#xe1;" glyph-name="aacute" horiz-adv-x="500" d="M205 44Q231 44 281 96T348 180L385 400Q331 428 291 428Q204 428 156 352T108 180Q108 121 131 83T205 44ZM206 -9Q129 -9 91 39T52 173Q52 282 108 376Q136 422 183 451T290 481Q309 481 340
472T390 452L396 472H449L389 110L391 -2L341 -8L333 93Q311 55 275 23T206 -9ZM213 622L377 720L395 666L230 574L213 622Z" />
<glyph unicode="&#xe2;" glyph-name="acircumflex" horiz-adv-x="500" d="M205 44Q231 44 281 96T348 180L385 400Q331 428 291 428Q204 428 156 352T108 180Q108 121 131 83T205 44ZM206 -9Q129 -9 91 39T52 173Q52 282 108 376Q136 422 183 451T290 481Q309
481 340 472T390 452L396 472H449L389 110L391 -2L341 -8L333 93Q311 55 275 23T206 -9ZM155 587L308 749H353L455 587H397L323 709L212 587H155Z" />
<glyph unicode="&#xe3;" glyph-name="atilde" horiz-adv-x="500" d="M205 44Q231 44 281 96T348 180L385 400Q331 428 291 428Q204 428 156 352T108 180Q108 121 131 83T205 44ZM206 -9Q129 -9 91 39T52 173Q52 282 108 376Q136 422 183 451T290 481Q309 481 340
472T390 452L396 472H449L389 110L391 -2L341 -8L333 93Q311 55 275 23T206 -9ZM451 694L471 661Q410 606 377 606T311 633T256 660T183 619L160 653Q225 707 261 707T332 681T383 654T451 694Z" />
<glyph unicode="&#xe4;" glyph-name="adieresis" horiz-adv-x="500" d="M205 44Q231 44 281 96T348 180L385 400Q331 428 291 428Q204 428 156 352T108 180Q108 121 131 83T205 44ZM206 -9Q129 -9 91 39T52 173Q52 282 108 376Q136 422 183 451T290 481Q309 481
340 472T390 452L396 472H449L389 110L391 -2L341 -8L333 93Q311 55 275 23T206 -9ZM218 610Q187 610 187 644Q187 660 199 672T227 684T252 675T260 651T248 623T218 610ZM397 610T389 619T380 643T392 671T421 684T445 675T454 651T442 623T413 610Z" />
<glyph unicode="&#xe5;" glyph-name="aring" horiz-adv-x="500" d="M205 44Q231 44 281 96T348 180L385 400Q331 428 291 428Q204 428 156 352T108 180Q108 121 131 83T205 44ZM206 -9Q129 -9 91 39T52 173Q52 282 108 376Q136 422 183 451T290 481Q309 481 340
472T390 452L396 472H449L389 110L391 -2L341 -8L333 93Q311 55 275 23T206 -9ZM382 744T406 723T431 657T397 583T316 553T244 574T219 639T252 713T334 744ZM261 638Q261 591 315 591Q348 591 367 609T387 658Q387 705 333 705Q300 705 281 687T261 638Z" />
<glyph unicode="&#xe6;" glyph-name="ae" horiz-adv-x="500" d="M133 -10Q88 -10 63 20T37 104Q37 179 81 224T199 269H264Q280 353 275 388T227 423T114 392L104 440Q181 475 229 475T297 462T323 416Q339 444 367 462T431 480Q501 480 523 430T528 269L516 217H313Q308
176 308 129T323 62T377 41Q402 42 458 58L476 63L483 15Q414 -10 369 -10T301 2T265 50Q223 -10 133 -10ZM242 92L254 218H191Q145 218 120 190T94 110Q94 41 146 41Q171 41 195 54Q218 66 230 79L242 92ZM484 344T475 386T423 428T360 392T324 267H470Q484 344
475 386Z" />
<glyph unicode="&#xe7;" glyph-name="ccedilla" horiz-adv-x="500" d="M358 320L375 419Q329 430 302 430Q175 430 144 237Q130 149 159 96T257 42Q298 42 379 71L387 21Q308 -9 251 -9Q158 -9 117 56T93 237Q129 481 309 481Q374 481 433 460L410 320H358ZM225
-57Q305 -57 305 -139Q305 -183 274 -212T196 -242Q171 -242 134 -235L146 -192Q164 -197 192 -197Q254 -197 254 -138Q254 -101 207 -101Q190 -101 163 -106L164 -65Q196 -57 225 -57Z" />
<glyph unicode="&#xe8;" glyph-name="egrave" horiz-adv-x="500" d="M186 454Q229 481 289 481T386 449T423 360T380 260T257 206L130 189Q132 114 156 79T240 43T380 72L389 22Q308 -9 234 -9T118 41T76 182Q76 294 120 382Q143 428 186 454ZM133 236L250 253Q310
262 340 291T371 359Q371 433 282 433Q213 433 177 377T133 236ZM232 717L394 619L369 576L205 668L232 717Z" />
<glyph unicode="&#xe9;" glyph-name="eacute" horiz-adv-x="500" d="M186 454Q229 481 289 481T386 449T423 360T380 260T257 206L130 189Q132 114 156 79T240 43T380 72L389 22Q308 -9 234 -9T118 41T76 182Q76 294 120 382Q143 428 186 454ZM133 236L250 253Q310
262 340 291T371 359Q371 433 282 433Q213 433 177 377T133 236ZM193 622L357 720L375 666L210 574L193 622Z" />
<glyph unicode="&#xea;" glyph-name="ecircumflex" horiz-adv-x="500" d="M186 454Q229 481 289 481T386 449T423 360T380 260T257 206L130 189Q132 114 156 79T240 43T380 72L389 22Q308 -9 234 -9T118 41T76 182Q76 294 120 382Q143 428 186 454ZM133 236L250
253Q310 262 340 291T371 359Q371 433 282 433Q213 433 177 377T133 236ZM150 587L303 749H348L450 587H392L318 709L207 587H150Z" />
<glyph unicode="&#xeb;" glyph-name="edieresis" horiz-adv-x="500" d="M186 454Q229 481 289 481T386 449T423 360T380 260T257 206L130 189Q132 114 156 79T240 43T380 72L389 22Q308 -9 234 -9T118 41T76 182Q76 294 120 382Q143 428 186 454ZM133 236L250
253Q310 262 340 291T371 359Q371 433 282 433Q213 433 177 377T133 236ZM198 610Q167 610 167 644Q167 660 179 672T207 684T232 675T240 651T228 623T198 610ZM377 610T369 619T360 643T372 671T401 684T425 675T434 651T422 623T393 610Z" />
<glyph unicode="&#xec;" glyph-name="igrave" horiz-adv-x="500" d="M365 2L359 52Q317 42 293 42Q242 42 236 67T243 162L293 475H121L113 425H233L189 160Q182 103 181 65T204 9T287 -10L365 2ZM172 717L334 619L309 576L145 668L172 717Z" />
<glyph unicode="&#xed;" glyph-name="iacute" horiz-adv-x="500" d="M365 2L359 52Q317 42 293 42Q242 42 236 67T243 162L293 475H121L113 425H233L189 160Q182 103 181 65T204 9T287 -10L365 2ZM153 622L317 720L335 666L170 574L153 622Z" />
<glyph unicode="&#xee;" glyph-name="icircumflex" horiz-adv-x="500" d="M365 2L359 52Q317 42 293 42Q242 42 236 67T243 162L293 475H121L113 425H233L189 160Q182 103 181 65T204 9T287 -10L365 2ZM85 587L238 749H283L385 587H327L253 709L142 587H85Z" />
<glyph unicode="&#xef;" glyph-name="idieresis" horiz-adv-x="500" d="M365 2L359 52Q317 42 293 42Q242 42 236 67T243 162L293 475H121L113 425H233L189 160Q182 103 181 65T204 9T287 -10L365 2ZM138 610Q107 610 107 644Q107 660 119 672T147 684T172 675T180
651T168 623T138 610ZM317 610T309 619T300 643T312 671T341 684T365 675T374 651T362 623T333 610Z" />
<glyph unicode="&#xf1;" glyph-name="ntilde" horiz-adv-x="500" d="M175 475L173 435Q271 481 332 481T422 437T442 317L392 0H339L392 317Q398 366 380 398Q362 429 314 429T165 385L101 0H49L127 475H175ZM441 694L461 661Q400 606 367 606T301 633T246 660T173
619L150 653Q216 707 252 707T322 681T374 654T441 694Z" />
<glyph unicode="&#xf2;" glyph-name="ograve" horiz-adv-x="500" d="M227 -10Q41 -12 67 234Q102 481 277 481Q368 482 409 421T437 237Q402 -10 227 -10ZM399 328T371 379T276 430T173 381T121 237T134 92T230 42Q352 42 384 236Q399 328 371 379ZM232 717L394
619L369 576L205 668L232 717Z" />
<glyph unicode="&#xf3;" glyph-name="oacute" horiz-adv-x="500" d="M227 -10Q41 -12 67 234Q102 481 277 481Q368 482 409 421T437 237Q402 -10 227 -10ZM399 328T371 379T276 430T173 381T121 237T134 92T230 42Q352 42 384 236Q399 328 371 379ZM203 622L367
720L385 666L220 574L203 622Z" />
<glyph unicode="&#xf4;" glyph-name="ocircumflex" horiz-adv-x="500" d="M227 -10Q41 -12 67 234Q102 481 277 481Q368 482 409 421T437 237Q402 -10 227 -10ZM399 328T371 379T276 430T173 381T121 237T134 92T230 42Q352 42 384 236Q399 328 371 379ZM145 587L298
749H343L445 587H387L313 709L202 587H145Z" />
<glyph unicode="&#xf5;" glyph-name="otilde" horiz-adv-x="500" d="M227 -10Q41 -12 67 234Q102 481 277 481Q368 482 409 421T437 237Q402 -10 227 -10ZM399 328T371 379T276 430T173 381T121 237T134 92T230 42Q352 42 384 236Q399 328 371 379ZM440 694L460
661Q399 606 366 606T300 633T245 660T172 619L149 653Q214 707 250 707T320 681T372 654T440 694Z" />
<glyph unicode="&#xf6;" glyph-name="odieresis" horiz-adv-x="500" d="M227 -10Q41 -12 67 234Q102 481 277 481Q368 482 409 421T437 237Q402 -10 227 -10ZM399 328T371 379T276 430T173 381T121 237T134 92T230 42Q352 42 384 236Q399 328 371 379ZM208 610Q177
610 177 644Q177 660 189 672T217 684T242 675T250 651T238 623T208 610ZM387 610T379 619T370 643T382 671T411 684T435 675T444 651T432 623T403 610Z" />
<glyph unicode="&#xf7;" glyph-name="divide" horiz-adv-x="500" d="M181 124Q181 182 231 182Q265 182 265 146Q265 118 254 105T217 92Q181 92 181 124ZM226 408Q226 465 276 465Q310 465 310 429Q310 375 261 375Q226 375 226 408ZM39 307L31 261H461L469 307H39Z" />
<glyph unicode="&#xf9;" glyph-name="ugrave" horiz-adv-x="500" d="M341 0L343 41Q248 -9 186 -9T93 35T70 155L122 475H174L122 155Q116 106 135 75T201 43T349 93L412 475H464L386 0H341ZM239 717L401 619L376 576L212 668L239 717Z" />
<glyph unicode="&#xfa;" glyph-name="uacute" horiz-adv-x="500" d="M341 0L343 41Q248 -9 186 -9T93 35T70 155L122 475H174L122 155Q116 106 135 75T201 43T349 93L412 475H464L386 0H341ZM213 622L377 720L395 666L230 574L213 622Z" />
<glyph unicode="&#xfb;" glyph-name="ucircumflex" horiz-adv-x="500" d="M341 0L343 41Q248 -9 186 -9T93 35T70 155L122 475H174L122 155Q116 106 135 75T201 43T349 93L412 475H464L386 0H341ZM151 587L304 749H349L451 587H393L319 709L208 587H151Z" />
<glyph unicode="&#xfc;" glyph-name="udieresis" horiz-adv-x="500" d="M341 0L343 41Q247 -9 186 -9T93 35T70 155L122 475H174L122 155Q116 106 135 75T201 43T349 93L412 475H464L386 0H341ZM208 610Q177 610 177 644Q177 660 189 672T217 684T242 675T250
651T238 623T208 610ZM387 610T379 619T370 643T382 671T411 684T435 675T444 651T432 623T403 610Z" />
<glyph unicode="&#xff;" glyph-name="ydieresis" horiz-adv-x="455" d="M94 475H151L210 71H215L394 475H450L197 -81Q162 -157 125 -180T1 -206L7 -155Q63 -153 92 -137T141 -76L169 -7L94 475ZM185 610Q154 610 154 644Q154 660 166 672T194 684T219 675T227
651T215 623T185 610ZM364 610T356 619T347 643T359 671T388 684T412 675T421 651T409 623T380 610Z" />
<glyph unicode="&#x2018;" glyph-name="quoteleft" horiz-adv-x="500" d="M340 661L249 454L188 471L299 672L340 661Z" />
<glyph unicode="&#x2019;" glyph-name="quoteright" horiz-adv-x="500" d="M189 472L280 679L341 662L229 461L189 472Z" />
<glyph unicode="&#x201c;" glyph-name="quotedblleft" horiz-adv-x="500" d="M398 656L307 449L246 466L358 667L398 656ZM258 674L167 467L106 484L217 685L258 674Z" />
<glyph unicode="&#x201d;" glyph-name="quotedblright" horiz-adv-x="500" d="M117 475L208 682L269 665L157 464L117 475ZM257 457L348 664L409 647L298 446L257 457Z" />
<glyph unicode="&#x2039;" glyph-name="guilsinglleft" horiz-adv-x="500" d="M305 39L139 206L145 253L365 420L355 352L189 230L315 103L305 39Z" />
<glyph unicode="&#x203a;" glyph-name="guilsinglright" horiz-adv-x="500" d="M193 417L359 250L353 203L133 36L143 103L308 226L183 352L193 417Z" />
</font>
</defs>
</svg>
